Teachers of English

BannerFans.com
 
HomeHome  PortailPortail  FAQFAQ  SearchSearch  RegisterRegister  Log in  
TIME IS MONEY
Top posters
HAMADA (851)
 
BRIM (170)
 
boualem02 (93)
 
sasuna (50)
 
tanita (44)
 
razane (26)
 
Nacerlarbi (23)
 
tanita- (17)
 
houari-1969 (12)
 
mayssa (11)
 
Keywords
lessons plans fiches plan application lesson http test peace exam term yearly book distribution work school File secondary planning make year english teacher LISTENING scripts EXAMS
Search
 
 

Display results as :
 
Rechercher Advanced Search
Guest Welcome
Most Viewed Topics
Inscription au BEM 2013 التسجيلات لشهادة التعليم المتوسط
Very usefull docs from Algerian Secondary School Teachers
http://www.djelfa.info/vb/
RESULTATS DU BEM 2012
من سيربح المليون
RESULATS BEM 2015
First Term English Test (4AM)
FILE PLAN File 02 3AM
Lesson plan sample 2011
First Term Test (Make Peace 2AS)
Latest topics
» 4 MS LISTENING SCRIPTS
Sat Oct 22, 2016 8:11 pm by HAMADA

» 2 AM weekly programme
Tue Oct 18, 2016 8:07 pm by fatimazohralakehal

» ONEC.dz
Fri Jul 08, 2016 9:54 am by HAMADA

» Are you going to listen to this once , Twice or ...?
Thu Jun 09, 2016 12:39 am by HAMADA

» What's your learning style ?
Wed May 11, 2016 9:21 am by HAMADA

» Idea worth spreading
Tue May 10, 2016 4:01 pm by HAMADA

» Once upon a time,a turtle and rabbit...
Tue May 10, 2016 3:37 pm by HAMADA

» Education by 2020
Tue May 10, 2016 2:47 pm by HAMADA

» MS4 Suggested Yearly Distribution 2013_2014
Sun May 08, 2016 7:33 pm by YoucefTgN

» http://mixlr.com/dz-learning-english-247
Mon Apr 25, 2016 3:12 pm by HAMADA

» Complete tape-scripts of the whole MS 4,3,2and 1
Wed Dec 02, 2015 9:27 am by HAMADA

» Take the quiz: match the correct antonyms!
Tue Nov 10, 2015 6:34 am by boualem02

» fitness vocabulary
Sun Nov 08, 2015 5:12 am by boualem02

» MS3 Suggested Yearly planning 2013_2014
Fri Oct 23, 2015 12:16 pm by nina85

» The official yearly planning n.2.
Fri Oct 23, 2015 3:16 am by boualem02

Most active topic starters
HAMADA
 
BRIM
 
boualem02
 
Nacerlarbi
 
tanita
 
houari-1969
 
Solinet
 
bepositive
 
mayssa
 
samfrank321
 
Similar topics

Share | 
 

  English Result Pre-Intermediate Teacher's DVD

View previous topic View next topic Go down 
AuthorMessage
BRIM
Administrator
Administrator


Number of posts : 170
Age : 6
Location : Tizi
Registration date : 2007-12-19

PostSubject: English Result Pre-Intermediate Teacher's DVD   Thu Jan 13, 2011 5:48 pm




English Result Pre-Intermediate Teacher's DVD
Publisher: Oxford Univ. Pr. | 2008 | ISBN: 978 0194302401 | English | AVI+PDF | Length: 00:25:08 | 269.85 Mb

What's on the DVD?
This DVD shows teachers and students using English Result material in class, commentary from the authors, and teacher reaction.
The classroom footage:
- demonstrates how English Result works in class
- shows you how to use the material before you teach
- covers a variety of pedagogical areas
The author commentary provides:
- an introduction to the course
- tips for best-practice teaching
How to use the DVD
The DVD can be used in the following ways:
- By an individual teacher- you can watch the DVD with or without the worksheets.
- As a teacher-training workshop - trainers can use the DVD and the
worksheets in a training session, including group discussion and
reflection on the issues presented in the DVD.
Trainer's notes and worksheets are designed to be used in conjunction
with the English Result teacher training DVD. Trainers can use the
worksheets in a training session to facilitate group discussion and
reflection on the issues presented in the DVD.
Each set of notes gives an overview of the teacher training session
together with ideas for activities to use before watching the lesson on
the DVD, while watching, and after watching. Each session will take
around two hours, though this may be shorter with more experienced
trainees.



General
Complete name : D:\My
Documents\Загрузки\ER_PRE_INT_t_dvd_video\ER_PRE_INT_t_dvd_video\ER_PRE_INT_t_dvd_video\ER_PRE_INT.Title2.avi
Format : AVI
Format/Info : Audio Video Interleave
File size : 270 MiB
Duration : 25mn 8s
Overall bit rate : 1 501 Kbps
Movie name : ER_PRE_INT.Title2.DVDRip
Writing application : Lavf52.78.4
Original source form/Name : ER_PRE_INT

Video
ID : 0
Format : AVC
Format/Info : Advanced Video Codec
Codec ID : H264
Duration : 25mn 8s
Bit rate : 1 297 Kbps
Width : 720 pixels
Height : 404 pixels
Display aspect ratio : 16:9
Frame rate : 29.970 fps
Color space : YUV
Chroma subsampling : 4:2:0
Bits/(Pixel*Frame) : 0.149
Stream size : 233 MiB (86%)

Audio
ID : 1
Format : AC-3
Format/Info : Audio Coding 3
Mode extension : CM (complete main)
Codec ID : 2000
Duration : 25mn 8s
Bit rate mode : Constant
Bit rate : 192 Kbps
Channel(s) : 2 channels
Channel positions : Front: L R
Sampling rate : 48.0 KHz
Bit depth : 16 bits
Compression mode : Lossy
Stream size : 34.5 MiB (13%)
Alignment : Aligned on interleaves
Interleave, duration : 32 ms (0.96 video frame)
Interleave, preload duration : 32 ms



Download from FileServe.com
OR
Download from FileSonic.com
Back to top Go down
 
English Result Pre-Intermediate Teacher's DVD
View previous topic View next topic Back to top 
Page 1 of 1
 Similar topics
-
» Repost A sequel of falling in love with my teacher.
» UPDATED[MediaFire]3 Idiots o 2009 o 550MB o X264 DVDRiP o English SubTitles o
» Result of Eligibility Check/Screening
» Saint John Bosco (2004) (ENGLISH)
» The Second Term Exam of English

Permissions in this forum:You cannot reply to topics in this forum
Teachers of English :: Requests ! Anything missing? Suggest .... :: Your message to the inspectors-
Jump to: